PLEASE DONATE TO SAVE THIS BLOG

PLEASE DONATE TO SAVE THIS BLOG!!!

Wednesday, November 27, 2013

Barcelona - Ajax Full Match Download 26.11.2013 TVE HD

DOWNLOAD TORRENT - HERE

General

Format                                   : MPEG-PS
File size                                : 1700 MiB
Duration                                 : 95mn 38s
Overall bit rate                         : 2 111 Kbps
Writing library                          : x264 - core 115 r2013 6fce39a

Video
ID                                       : 224 (0xE0)
Format                                   : AVC
Format/Info                              : Advanced Video Codec
Format profile                           : High@L3.2
Format settings, CABAC                   : Yes
Format settings, ReFrames                : 4 frames
Duration                                 : 53mn 38s
Bit rate                                 : 2 000 Kbps
Width                                    : 1 280 pixels
Height                                   : 720 pixels
Display aspect ratio                     : 16:9
Frame rate                               : 25.000 fps
Color space                              : YUV
Chroma subsampling                       : 4:2:0
Bit depth                                : 8 bits
Scan type                                : Progressive
Bits/(Pixel*Frame)                       : 0.087
Stream size                              : 757 MiB (93%)
Writing library                          : x264 core 115 r2013 6fce39a
Encoding settings                        : cabac=1 / ref=3 / deblock=1:0:0 / analyse=0x3:0x13 / me=hex / subme=7 / psy=1 / psy_rd=1.00:0.00 / mixed_ref=1 / me_range=16 / chroma_me=1 / trellis=1 / 8x8dct=1 / cqm=0 / deadzone=21,11 / fast_pskip=1 / chroma_qp_offset=-2 / threads=12 / sliced_threads=0 / nr=0 / decimate=1 / interlaced=0 / bluray_compat=0 / constrained_intra=0 / bframes=3 / b_pyramid=2 / b_adapt=1 / b_bias=0 / direct=1 / weightb=1 / open_gop=0 / weightp=2 / keyint=250 / keyint_min=25 / scenecut=40 / intra_refresh=0 / rc_lookahead=40 / rc=cbr / mbtree=1 / bitrate=2000 / ratetol=1.0 / qcomp=0.60 / qpmin=10 / qpmax=51 / qpstep=4 / vbv_maxrate=2000 / vbv_bufsize=20000 / nal_hrd=none / ip_ratio=1.40 / aq=1:1.00

Audio
ID                                       : 192 (0xC0)
Format                                   : MPEG Audio
Format version                           : Version 1
Format profile                           : Layer 3
Mode                                     : Joint stereo
Mode extension                           : MS Stereo
Duration                                 : 53mn 38s
Bit rate mode                            : Constant
Bit rate                                 : 96.0 Kbps
Channel count                            : 2 channels
Sampling rate                            : 44.1 KHz
Compression mode                         : Lossy
Delay relative to video                  : -300ms
Stream size                              : 36.8 MiB (5%)

1 comment:

  1. Nice blog,, i'm very enjoyed to visit this site. have a nice day :D

    ReplyDelete